複製鏈接
請複製以下鏈接發送給好友

CUE

(光盤映像輔助文件)

編輯 鎖定
CUE(cuesheet)是指光盤映像(鏡像)輔助文件或稱標記文件,按照文本文件格式編制。它在刻錄光盤映像文件時,起很重要的作用。它可以指揮刻錄軟件刻什麼格式,刻錄那些內容,從哪裏開始,到哪裏結束,附加什麼信息等等、等等。有了cue文件,既可以減少刻錄的準備工作以提高刻錄效率,又可以保證刻錄的準確性。
中文名
光盤映像輔助文件
外文名
cuesheet
別    名
標記文件
作    用
提高刻錄效率、保證刻錄的準確性

CUE多個映像文件組成的多音軌刻錄的cue例子

編輯
這個例子是George Michael的Songs From The Last Century專輯。
CATALOG 7243848740251
PERFORMER "George Michael"
TITLE "Songs from the Last Century"
FILE "01 - Brother Can You Spare A Dime.wav" WAVE
TRACK 01 AUDIO
TITLE "Brother Can You Spare A Dime"
PERFORMER"George Michael"
INDEX 01 00:00:00
FILE "02 - Roxanne.wav" WAVE
TRACK 02 AUDIO
TITLE "Roxanne"
PERFORMER"George Michael"
INDEX 00 00:00:00
INDEX 01 00:01:60
…………….
第一行是:CATALOG 7243848740251
這個CATALOG是一個媒體編目碼(Media Catalog Number),必須是13位阿拉伯數字,一般與唱片的EAN(商品條形碼)相對應。比如這張片子的EAN碼就是:7243848740251。編目碼最前面是國家和出版商的代碼,這裏的7243是“VIRGIN RECORDS”公司的代碼,而該唱片編號就是當中的48740,倒數第三個如果是“2”則習慣上是指CD片(一般“1”是LP,“4”指盒式磁帶,等等),倒數第二位表示版本,最後一位數保留,一般為1。兩張不同唱片的CATALOG碼是絕不會重複的。這一行是可選的,沒有也可以。
第二行是:PERFORMER"George Michael"
這個PERFORMER是指整個唱片的表演家的名字。必須用雙引號括起來。這一行也是可選的。
第三行是:TITLE "Songs from the Last Century"
TITLE是指唱片的名字。必須用雙引號括起來。這一行也是可選的。
第四行是:FILE "01 - Brother Can You Spare A Dime.wav" WAVE
FILE就是你要刻錄的光盤映像文件了。WAVE表示該文件是音頻文件。音樂盤刻錄軟件一般支持:.wav和.mp3兩種文件。其中.mp3文件寫法如下:
FILE "01 - Brother Can You Spare adime.mp3" MP3,不過用EAC刻錄時,後面的MP3卻要改成WAVE。
而.ape文件只有eac等少數刻錄軟件支持,寫法同.wav文件,只不過文件的擴展名不同罷了。當然,不管用wav也好,還是用mp3或ape也好,最後生成的都是音軌,而不是刻錄文件本身。
映像文件的路徑可以是絕對路徑,如:”I:\APE\ George Michael- Brother Can You Spare A Dime\01 - Brother Can You Spare A Dime.wav”。也可以是相對路徑,如:” 01 - Brother Can You Spare A Dime.wav”。注意,如果使用相對路徑,則刻錄軟件只從包含該cue文件的文件夾中尋找,如果你的文件不在這裏,或者是分散在不同的文件夾中,那就必須使用絕對路徑了。另外,如果在指定路徑中找不到文件,會產生錯誤。這時候,打開cue文件,修改路徑就可以了。在一般情況下,使用相對路徑,操作時方便些。
第五行是:TRACK 01 AUDIO
這一行很關鍵,它表示當前刻錄那個光軌、光軌的類型。這裏表示是第一個光軌,AUDIO表示光軌的類型是音頻。當中這個數字必須是從01開始的2位阿拉伯數字,順序排列,絕不可以跳躍、空缺或重複,一定是:01、02、03、04…..這樣下去,直到結束。
第六、七行是指該曲目的表演家、曲目的名字,這兩行都是可選的,也可以只有其中的一個。
第八行INDEX 01 00:00:00
這行表示光軌中段落的索引號。其中INDEX 00一般表示該光軌開始時的間歇(留一段空白),而INDEX 01則表示音樂開始了,多段的索引:01、02、03等用得比較少,一般表示交響樂中的段落等。大部分CD播放機有INDEX顯示功能,能在播放時顯示 INDEX號碼。如果這段音樂有INDEX 00,那麼大部分CD機在選曲時將會自動跳躍到INDEX 01處進行播放,而在順序播放時,會從INDEX 00處開始,以保持曲間的間隙,這時候,CD機的時間顯示為負數。
INDEX 01是必需的,而INDEX 00等都是可選的。索引號後面用冒號分開的數字,表示該索引開始的時間。第一段是分鐘,第二段是秒,第三段是幀數(frame)。一秒鐘的音樂包含75個幀,數字從零開始,到74為止。注意:這個時間是相對於整個映像文件的絕對值。
後面部分與前面相同了。
注意:在這個例子中,曲目間的間隙(空白)是在每個映像文件的開始處。
cue文件的編碼方式為ANSI,其他編碼下,無法使用cue。

CUE單個映像文件

編輯
PERFORMER"Andrea Bocelli"
TITLE "Romanza (Spanish Version)"
FILE "CDImage.wav" WAVE
TRACK 01 AUDIO
TITLE "Por Ti Volare"
PERFORMER"Andrea Bocelli"
INDEX 01 00:00:00
TRACK 02 AUDIO
TITLE "Vivire"
PERFORMER"Andrea Bocelli"
INDEX 00 04:09:67
INDEX 01 04:11:35
…………….
裏面的內容,上段已經解釋過了,只不過這個cue中只有一個映像文件了:"CDImage.wav"。那裏面所有的時間都是相對於CDImage.wav這個映像文件而言的。

CUE間歇在曲目後面

編輯
再讓我們看另一個cue文件:
PERFORMER"Various"
TITLE "Gate to Classics: Song"
FILE "01-Martini- Piacer D'amer.wav" WAVE
TRACK 01 AUDIO
TITLE "Martini: Piacer D'amer"
PERFORMER"Martini: Piacer D'amer"
INDEX 01 00:00:00
TRACK 02 AUDIO
TITLE "Schubert: Ave Maria"
PERFORMER"Schubert: Ave Maria"
INDEX 00 04:06:13
FILE "02-Schubert- Ave Maria.wav" WAVE
INDEX 01 00:00:00
TRACK 03 AUDIO
TITLE "Mendelssohn: Auf Flugeln"
PERFORMER"Mendelssohn: Auf Flugeln"
INDEX 00 05:27:03
FILE "03-Mendelssohn- Auf Flugeln.wav" WAVE
INDEX 01 00:00:00
…………
前面那部分與上面相同,問題出在TRACK 02 AUDIO以後。如果在抓取光盤映像時,將曲目間歇放在了曲目後面,就會產生這樣的cue。注意看:音軌02的INDEX 00是在第一個映像文件中的,也就是説,在第一個音樂文件的後面有一段空白,這部分是第一、第二段音樂的間隙,因此在刻錄時,這個間隙應該算第二個光軌的開始空白。它的位置就從第一個文件的04:06:13到該文件的結束處。後面的情況也相同。這種格式的cue,只有EAC和Fantom等少數刻錄軟件支持。

CUEPREGAP和POSTGAP

編輯
看這一個cue文件的例子
FILE "I:\人聲\外語\ecm1525_Officium(聖禱)\01-Parce mihi domine.wav" WAVE
TRACK 01 AUDIO
PREGAP 00:02:00
INDEX 01 00:00:00
FILE "I:\人聲\外語\ecm1525_Officium(聖禱)\02-Primo tempore.wav" WAVE
TRACK 02 AUDIO
PREGAP 00:02:00
INDEX 01 00:00:00
……………..
PREGAP 是指在映像文件刻錄前,先留一段空白(靜音,所有數字都為0)。相反的,用POSTGAP可以在映像文件刻錄完以後多留出一段空白。請大家注意:這裏的 PREGAP或者POSTGAP所留出的空白是不包括在映像文件中的,是另外增加的;而用INDEX 00所留出的空白段的時間,是包含在映像文件中的,也就是映像文件裏必需有這段空白。

CUE指令介紹

編輯
在音樂映像的cue文件中,還可能遇到以下幾種指令,這些指令都是可選的。
ISRC 指令:如:ISRC CNF120233501,這是ISRC碼的一種縮寫。由5個字符加7個阿拉伯數字構成,ISRC(International Standard Recording Code number)是國際標準編碼,由國家碼、出版者碼、錄製年碼、記錄碼和記錄項碼5部分構成。每個專輯的ISRC碼也是絕不重複的。以上例子是中國太平洋影音公司出版的流淌的歌聲“真情依舊”第八集,其ISRC碼為:CN-F12-02-355-00/A.J6,其中的第一曲。
FLAGS 指令:是聲軌的標誌,用來表示數字複製保護和聲軌類型等信息。。比如:FLAGS DCP 4CH PRE SCMS。這裏,DCP(Digital-Copy-Permitted)=數字複製許可,4CH=4通道,PRE(PRE-emphasis)=預加重,SCMS(Serial-Copy-Management-System)=連續複製管理系統。FLAGS指令比較罕見。
REM指令:非關鍵,可作為給CUE閲讀者的註釋,也可通過如“REM REPLAYGAIN_TRACK_GAIN +(或-)*.**(精確到小數點後兩位)(空格)db”對單個曲目回放增益進行微調
CDTEXTFILE 指令:如:CDTEXTFILE "Live.cdt",這表示將Live.cdt這個CD-TEXT信息文件的內容刻錄到片子上去。這裏的.cdt文件包含了所有的PERformER、 TITLE等內容,而且支持8種語言。.cdt文件可以用專門的軟件進行編輯。不過EAC等一些軟件不可使用該指令。
cue文件中的 PERformER、TITLE也是CD-TEXT的一種。在具有“CD-TEXT”標誌的CD播放設備上,可以顯示該文本。例如ARCAM的CD65- TEXT,可以在播放時滾動顯示出該信息。當然,用支持CD-TEXT的電腦軟件播放或抓軌時,該信息也會被顯示或利用。不過,要刻錄這個內容,必須您的刻錄設備支持CD-TEXT功能,而且在刻錄軟件中打開了CD-TEXT選項。

CUE文件修復

編輯

CUE準備工作

需要下載兩個軟件,一是Foobar;另一個是Exact Audio Copy(以下簡稱EAC),這是個免費軟件

CUE操作步驟

第一步 首先用Foobar打開APE文件,然後右鍵單擊播放列表中的文件名,在彈出的菜單中選擇“轉換”/“運行轉換器”,打開“選擇文件寫入器預置”對話框,在下拉列表中選擇“WAV(PCM,定點)”,單擊“確定”選擇wav文件的保存路徑即可開始轉換;
第二步 打開EAC,執行“工具”菜單中的“處理WAV文件”命令導入剛才得到的wav文件,等它分析完成後,會出現一個窗口,看上去好像很複雜,其實我們只要執行三步命令即可,它們都位於“CUE 目錄文件”菜單中。首先執行“創建新的CUE目錄文件”;然後執行“生成CUE目錄文件”,等處理完成後會彈出“CUE 文件摘錄”對話框,首先把“索引”顯示為0的點刪除,然後仔細觀察“時間”列,找出並刪除錯誤的音軌,關閉對話框;最後單擊“保存CUE目錄文件”即可生成新的CUE文件;
第三步 用記事本打開這個CUE文件,你會看到類似這樣的內容:
FILE "H:\001.CDImage.wav" WAVE
TRACK 01 AUDIO
INDEX 01 00:00:00
TRACK 02 AUDIO
INDEX 01 03:31:07
TRACK 03 AUDIO
INDEX 01 07:57:45
……
首先在“FILE "H:\001.CDImage.wav" WAVE”行上方增加一行文字,格式如下:
TITLE "CD專輯名稱"
如果CD內的歌曲為同一人演唱,可在TITLE行上方再增加一行“PERFORMER "歌手名"”,注意這兩行必須頂頭開始,前面不要留空格。
然後把“FILE "H:\001.CDImage.wav" WAVE”中的文件名該為APE文件的文件名,由於CUE文件通常與APE文件存放在同一目錄下,因此無須輸入路徑,只輸文件名即可。
“TRACK 01 AUDIO”、“ TRACK 02 AUDIO”等文字表示專輯中的各首單曲,“INDEX ……”表示每首歌曲的播放時間,這些無須更改。我們只需要在“TRACK 0x AUDIO”和“INDEX ……”之間增加兩行文字即可,它們也用“PERFORMER ……”和“TITLE ……”打頭,前者表示歌手名,後者則表示歌曲名。這裏要注意,此處增加的這兩行必須與“INDEX ……”行對齊。
最後保存並關閉記事本。